YouTubeの動画をBMPに分解する

ちょっと訳あって、YouTubeの動画をBMPファイルに分解してサイズを縮小してみました。
環境はいろいろ訳あって、仮想マシン上のUbuntu10.04LTS 32bitです。

ダウンロードの方法は省略です。

まず、FLV形式の動画をBMPに分解します。

$ ffmpeg -i (入力ファイル名).flv -f image2 -vcodec bmp image%05d.bmp

で「imageXXXXX.bmp」というファイル名形式の連番のファイルに分解されます。
処理開始時の表示の中にフレームレートなどもありますので、必要に応じてメモします。

・・・・と思ったら、1ページ1MBでかなり大きかったのでDISK FULLになってしまいました。

先にAviDemuxでサイズ縮小&AVIフォーマットに変換してから分解することにします。
(変換については省略です)

$ ffmpeg -i 64x48.AVI -f image2 -vcodec bmp image%05d.bmp
FFmpeg version SVN-r0.5.9-4:0.5.9-0ubuntu0.10.04.1, Copyright (c) 2000-2009 Fabrice Bellard, et al.
  configuration: --extra-version=4:0.5.9-0ubuntu0.10.04.1 --prefix=/usr --enable-avfilter --enable-avfilter-lavf --enable-vdpau --enable-bzlib --enable-libgsm --enable-libschroedinger --enable-libspeex --enable-libtheora --enable-libvorbis --enable-pthreads --enable-zlib --disable-stripping --disable-vhook --enable-runtime-cpudetect --enable-gpl --enable-postproc --enable-swscale --enable-x11grab --enable-libdc1394 --enable-shared --disable-static
  libavutil     49.15. 0 / 49.15. 0
  libavcodec    52.20. 1 / 52.20. 1
  libavformat   52.31. 0 / 52.31. 0
  libavdevice   52. 1. 0 / 52. 1. 0
  libavfilter    0. 4. 0 /  0. 4. 0
  libswscale     0. 7. 1 /  0. 7. 1
  libpostproc   51. 2. 0 / 51. 2. 0
  built on Jun 12 2012 16:27:34, gcc: 4.4.3
Input #0, avi, from '64x48.AVI':
  Duration: 00:03:38.93, start: 0.000000, bitrate: 1247 kb/s
    Stream #0.0: Video: rawvideo, yuv420p, 64x48, 30 tbr, 30 tbn, 30 tbc
    Stream #0.1: Audio: mp3, 44100 Hz, stereo, s16, 128 kb/s
[swscaler @ 0x9d632e0]No accelerated colorspace conversion found.
Output #0, image2, to 'image%05d.bmp':
    Stream #0.0: Video: bmp, bgr24, 64x48, q=2-31, 200 kb/s, 90k tbn, 30 tbc
Stream mapping:
  Stream #0.0 -> #0.0
Press [q] to stop encoding
frame= 6569 fps=  0 q=0.0 Lsize=      -0kB time=218.94 bitrate=  -0.0kbits/s    
video:59467kB audio:0kB global headers:0kB muxing overhead -100.000036%

ということで、分解できました。

コメントを残す

メールアドレスが公開されることはありません。 * が付いている欄は必須項目です

日本語が含まれない投稿は無視されますのでご注意ください。(スパム対策)